Cargo 2018 Movies 720p BluRay x264 AAC with Sample ☻rDX☻

  • Category Movies
  • Type HD
  • Language English
  • Total size 789.1 MB
  • Uploaded By nehalpuja
  • Downloads 18
  • Last checked 1 hour ago
  • Date uploaded 2 days ago
  • Seeders 6
  • Leechers 9

Cargo

DramaHorror

After being infected in the wake of a violent pandemic and with only 48 hours to live, a father struggles to find a new home for his baby daughter.

Infohash : F1F8220672ACA56F26BA6F85507F0048B475557A

Cargo 2018 Movies 720p BluRay x264 AAC with Sample ☻rDX☻
===============================================================================================

SCREEN SHOTS:



or

http://iphonehosting.eu/2018/9/a/godaddy/1.html

File size : 781 MiB
Duration : 1 h 43 min
Overall bit rate mode : Constant
Overall bit rate : 1 054 kb/s
Movie name : Cargo 2018 Movies 720p BluRay x264 AAC ☻rDX☻

Video
ID : 2
Format : AVC
Format/Info : Advanced Video Codec
Format profile : [email protected]
Format settings, CABAC : Yes
Format settings, ReFrames : 2 frames
Format settings, GOP : M=1, N=12
Codec ID : V_MPEG4/ISO/AVC
Duration : 1 h 43 min
Bit rate mode : Constant
Bit rate : 991 kb/s
Width : 1 280 pixels
Height : 576 pixels
Display aspect ratio : 2.222
Frame rate mode : Constant
Frame rate : 23.976 FPS
Color space : YUV
Chroma subsampling : 4:2:0
Bit depth : 8 bits
Scan type : Progressive
Bits/(Pixel*Frame) : 0.056
Stream size : 718 MiB (92%)
Title : ☻rDX☻
Language : English
Default : Yes
Forced : No

Audio
ID : 1
Format : MPEG Audio
Format version : Version 1
Format profile : Layer 3
Mode : Joint stereo
Mode extension : MS Stereo
Codec ID : A_MPEG/L3
Codec ID/Hint : MP3
Duration : 1 h 43 min
Bit rate mode : Constant
Bit rate : 64.0 kb/s
Channel(s) : 2 channels
Sampling rate : 44.1 kHz
Compression mode : Lossy
Stream size : 47.4 MiB (6%)
Title : ☻rDX☻
Default : Yes
Forced : No

http://www.imdb.com/title/tt3860916/

Files:

Cargo 2018 Movies 720p BluRay x264 AAC with Sample ☻rDX☻
  • Sample ~ Cargo 2018 Movies 720p BluRay x264 AAC ☻rDX☻.mkv (8.0 MB)
  • Cargo 2018 Movies 720p BluRay x264 AAC ☻rDX☻.mkv (781.1 MB)

There are currently no comments. Feel free to leave one :)

Code:

  • udp://tracker.coppersurfer.tk:6969/announce
  • udp://tracker.leechers-paradise.org:6969/announce
  • udp://tracker.pirateparty.gr:6969/announce
  • udp://eddie4.nl:6969/announce
  • udp://tracker.zer0day.to:1337/announce
  • udp://9.rarbg.me:2710/announce
  • udp://9.rarbg.to:2710/announce
  • udp://public.popcorn-tracker.org:6969/announce
  • udp://p4p.arenabg.ch:1337/announce
  • udp://tracker.vanitycore.co:6969/announce
  • udp://ipv4.tracker.harry.lu:80/announce
  • udp://tracker.opentrackr.org:1337/announce
  • udp://p4p.arenabg.com:1337/announce
  • udp://shadowshq.yi.org:6969/announce
SitemapPorcellana e ceramica | La mujer más odiada de América (2017) | AMC Security pro apk free download Baixar Filme | 3x09 The Beginning Is the End Is the Beginning (SUB ITA) | Zerozaki Soushiki no Ningen Shiken