Daana Paani (2018) 720p Punjabi HDRip x264 AAC by Full4movies

  • Category Movies
  • Type HD
  • Language Punjabi
  • Total size 814.1 MB
  • Uploaded By shmasti
  • Downloads 130
  • Last checked 7 minutes ago
  • Date uploaded 1 day ago
  • Seeders 9
  • Leechers 7

Daana Paani

Characters fulfill their deity-determined destiny, in a fashion.

Infohash : 9F8C330A789F040FDF1446357E30B8A2D2CD16EB



General
Complete name : Daana Paani (2018) 720p Punjabi HDRip x264 AAC by Full4movies.mkv
Format : Matroska
Format version : Version 4 / Version 2
File size : 814 MiB
Duration : 1 h 45 min
Overall bit rate : 1 079 kb/s
Movie name : www.Full4movies.co
Encoded date : UTC 2018-10-03 17:32:52
Writing application : mkvmerge v8.1.0 ('Psychedelic Postcard') 32bit
Writing library : libebml v1.3.1 + libmatroska v1.4.2

Video
ID : 1
Format : AVC
Format/Info : Advanced Video Codec
Format profile : [email protected]
Format settings, CABAC : Yes
Format settings, RefFrames : 3 frames
Codec ID : V_MPEG4/ISO/AVC
Duration : 1 h 45 min
Bit rate : 951 kb/s
Width : 1 280 pixels
Height : 720 pixels
Display aspect ratio : 16:9
Frame rate mode : Constant
Frame rate : 24.000 FPS
Color space : YUV
Chroma subsampling : 4:2:0
Bit depth : 8 bits
Scan type : Progressive
Bits/(Pixel*Frame) : 0.043
Stream size : 718 MiB (88%)
Default : Yes
Forced : No
Color range : Limited
Color primaries : BT.709
Transfer characteristics : BT.709
Matrix coefficients : BT.709

Audio
ID : 2
Format : AAC
Format/Info : Advanced Audio Codec
Format profile : LC
Codec ID : A_AAC
Duration : 1 h 45 min
Bit rate : 126 kb/s
Channel(s) : 2 channels
Channel positions : Front: L R
Sampling rate : 44.1 kHz
Frame rate : 43.066 FPS (1024 SPF)
Compression mode : Lossy
Stream size : 94.8 MiB (12%)
Language : Panjabi
Default : Yes
Forced : No

Screen Shoots

Files:

  • Daana Paani (2018) 720p Punjabi HDRip x264 AAC by Full4movies.mkv (814.1 MB)

There are currently no comments. Feel free to leave one :)

Code:

  • udp://tracker.coppersurfer.tk:6969/announce
  • udp://tracker.opentrackr.org:1337/announce
  • udp://9.rarbg.me:2710/announce
  • udp://tracker.torrent.eu.org:451/announce
  • udp://open.stealth.si:80/announce
  • udp://public.popcorn-tracker.org:6969/announce
  • udp://p4p.arenabg.ch:1337/announce
  • udp://tracker.zer0day.to:1337/announce
  • udp://tracker.pirateparty.gr:6969/announce
  • udp://tracker.leechers-paradise.org:6969/announce
  • udp://tracker.tiny-vps.com:6969/announce
  • udp://bt.firebit.co.uk:6969/announce
  • udp://inferno.demonoid.pw:3397/announce
  • udp://shadowshq.yi.org:6969/announce
  • udp://9.rarbg.to:2780/announce
SitemapAmazon Music Unlimited | Animation | [Read more...] about Turbo 2013 BluRay 300Mb Full Hindi Dual Audio Movie Download 480p Mamma Mia! Here We Go Again - Blu-ray In Paper Sleeve - Free Shipping | 135 Telecharger Rio – Wii Gratuit Rio Wii telecharger torrent Oiseaux dune partie de la plume ensemble dans cette aventure parti basé sur le hit film danimation Rio!... | Off Shoulder Plain Bell Sleeve T-Shirts