Haseena (2018) Hindi 720p Itunes HDRip x264 AAC 2.4GB - MovCr Exc...

  • Category Movies
  • Type Bollywood
  • Language Hindi
  • Total size 2.4 GB
  • Uploaded By ictv
  • Downloads 184
  • Last checked 40 minutes ago
  • Date uploaded 1 day ago
  • Seeders 17
  • Leechers 5

Haseena

Haseena is Story Of Three Friends Which A Hot Girl Friend Share....But The Girl Is Criminal Dangerous...Tvstring.com

Infohash : C2CBAEAFCA3AD5DF05FFA85F25E20EC589E1762C

Our Site URL http://movcr.cc


Haseena (2018) Hindi 720p Itunes HDRip x264 AAC 2.4GB - MovCr Exclusive



http://www.imdb.com/title/tt7335176/




General
Unique ID : 209299544935231615650426765807108879667 (0x9D75A047ADE2D431A72793240449F533)
Complete name : www.MovCr.cc - Haseena (2018) Hindi 720p Itunes HDRip x264 AAC 2.4GB - MovCr Exclusive.mkv
Format : Matroska
Format version : Version 4 / Version 2
File size : 2.42 GiB
Duration : 2 h 7 min
Overall bit rate : 2 731 kb/s
Movie name : www.MovCr.cc
Encoded date : UTC 2018-10-04 13:17:57
Writing application : mkvmerge v26.0.0 ('In The Game') 64-bit
Writing library : libebml v1.3.6 + libmatroska v1.4.9

Video
ID : 1
Format : AVC
Format/Info : Advanced Video Codec
Format profile : [email protected]
Format settings : CABAC / 4 Ref Frames
Format settings, CABAC : Yes
Format settings, RefFrames : 4 frames
Codec ID : V_MPEG4/ISO/AVC
Duration : 2 h 7 min
Bit rate : 2 599 kb/s
Width : 1 280 pixels
Height : 540 pixels
Display aspect ratio : 2.40:1
Frame rate mode : Constant
Frame rate : 25.000 FPS
Color space : YUV
Chroma subsampling : 4:2:0
Bit depth : 8 bits
Scan type : Progressive
Bits/(Pixel*Frame) : 0.150
Stream size : 2.31 GiB (95%)
Title : www.MovCr.cc
Writing library : x264 core 148 r2643 5c65704
Encoding settings : cabac=1 / ref=1 / deblock=1:0:0 / analyse=0x3:0x3 / me=dia / subme=1 / psy=1 / psy_rd=1.00:0.00 / mixed_ref=0 / me_range=16 / chroma_me=1 / trellis=0 / 8x8dct=1 / cqm=0 / deadzone=21,11 / fast_pskip=1 / chroma_qp_offset=0 / threads=12 / lookahead_threads=2 / sliced_threads=0 / nr=0 / decimate=1 / interlaced=0 / bluray_compat=0 / constrained_intra=0 / bframes=3 / b_pyramid=2 / b_adapt=1 / b_bias=0 / direct=1 / weightb=1 / open_gop=0 / weightp=1 / keyint=250 / keyint_min=25 / scenecut=40 / intra_refresh=0 / rc=abr / mbtree=0 / bitrate=2599 / ratetol=1.0 / qcomp=0.60 / qpmin=0 / qpmax=69 / qpstep=4 / ip_ratio=1.40 / pb_ratio=1.30 / aq=1:1.00
Language : English
Default : Yes
Forced : No

Audio
ID : 2
Format : AAC
Format/Info : Advanced Audio Codec
Format profile : LC
Codec ID : A_AAC-2
Duration : 2 h 7 min
Bit rate : 128 kb/s
Channel(s) : 2 channels
Channel positions : Front: L R
Sampling rate : 44.1 kHz
Frame rate : 43.066 FPS (1024 SPF)
Compression mode : Lossy
Delay relative to video : -46 ms
Stream size : 116 MiB (5%)
Title : www.MovCr.cc
Language : Hindi
Default : Yes
Forced : No

Menu
00:00:00.000 : en:1
00:18:05.625 : en:2
00:28:06.958 : en:3
00:52:32.916 : en:4
02:03:39.666 : en:5








Files:

  • www.MovCr.cc - Haseena (2018) Hindi 720p Itunes HDRip x264 AAC 2.4GB - MovCr Exclusive.mkv (2.4 GB)

There are currently no comments. Feel free to leave one :)

Code:

  • udp://tracker.coppersurfer.tk:6969/announce
  • udp://tracker.opentrackr.org:1337/announce
  • udp://tracker.leechers-paradise.org:6969/announce
  • udp://9.rarbg.to:2800/announce
  • udp://9.rarbg.to:2800/announce
  • udp://eddie4.nl:6969/announce
  • udp://9.rarbg.to:2800/announce
  • udp://9.rarbg.to:2800/announce
  • udp://tracker.doko.moe:6969/announce
  • udp://tracker.doko.moe:6969/announce
  • udp://thetracker.org:80/announce
  • udp://thetracker.org:80/announce
  • udp://bt.xxx-tracker.com:2710/announce
  • udp://bt.xxx-tracker.com:2710/announce
  • udp://tracker.vanitycore.co:6969/announce
  • udp://tracker.vanitycore.co:6969/announce
  • udp://tracker.tiny-vps.com:6969/announce
  • udp://tracker.leechers-paradise.org:6969/announce
  • udp://tracker.tiny-vps.com:6969/announce
  • udp://tracker.opentrackr.org:1337/announce
  • udp://tracker.coppersurfer.tk:6969/announce
  • udp://open.stealth.si:80/announce
  • udp://tracker.leechers-paradise.org:6969/announce
  • udp://inferno.demonoid.pw:3418/announce
  • udp://tracker.opentrackr.org:1337/announce
  • udp://retracker.lanta-net.ru:2710/announce
  • udp://peerfect.org:6969/announce
  • udp://tracker.coppersurfer.tk:6969/announce
  • udp://tracker.swateam.org.uk:2710/announce
  • udp://open.stealth.si:80/announce
  • udp://inferno.demonoid.pw:3418/announce
  • udp://retracker.lanta-net.ru:2710/announce
  • udp://peerfect.org:6969/announce
  • udp://tracker.swateam.org.uk:2710/announce
SitemapCommunication Climate - 824 Words | Naqaab (2018) Bengali Movie - 720p - HDTV Rip [x264 - AC3(2Ch)] - 2.98 GB | 5 Early Pregnancy Midstream Test Kits 10mIU Urine Testing ONE STEPĀ® American Foreign Policies | Melrose Place (1992) | Doki Doki School Hours OVA