Mayaanadhi (2018) 720p Malayalam BDRip x264 AC3 ESub by Full4movi...

  • Category Movies
  • Type HD
  • Language Malayalam
  • Total size 1.5 GB
  • Uploaded By shmasti
  • Downloads 16
  • Last checked 45 minutes ago
  • Date uploaded 14 hours ago
  • Seeders 9
  • Leechers 9

Mayaanadhi

DramaRomance

A shady money deal goes wrong and in the aftermath Mathan (Tovino) ends up killing a police officer. Meanwhile in Kochi, his old flame Aparna (Aishwarya Lakshmi) an aspiring actress is struggling to prop up her career. Mathan meets up with Aparna and tries to rekindle the past, even as the police hunt for him gets intense.

Infohash : 2EF43C2FA2ABAFBC8BD07D6920D5E854E02CE031



General
Complete name : Mayaanadhi (2018) 720p Malayalam BDRip x264 AC3 ESub by Full4movies.mkv
Format : Matroska
Format version : Version 4 / Version 2
File size : 1.50 GiB
Duration : 2 h 15 min
Overall bit rate : 1 583 kb/s
Movie name : www.Full4movies.co
Encoded date : UTC 2018-10-04 16:22:25
Writing application : mkvmerge v8.1.0 ('Psychedelic Postcard') 32bit
Writing library : libebml v1.3.1 + libmatroska v1.4.2

Video
ID : 1
Format : AVC
Format/Info : Advanced Video Codec
Format profile : [email protected]
Format settings, CABAC : Yes
Format settings, RefFrames : 4 frames
Codec ID : V_MPEG4/ISO/AVC
Duration : 2 h 15 min
Bit rate : 1 357 kb/s
Width : 1 280 pixels
Height : 544 pixels
Display aspect ratio : 2.35:1
Frame rate mode : Constant
Frame rate : 24.000 FPS
Color space : YUV
Chroma subsampling : 4:2:0
Bit depth : 8 bits
Scan type : Progressive
Bits/(Pixel*Frame) : 0.081
Stream size : 1.28 GiB (86%)
Writing library : x264 core 155 r2901 7d0ff22
Default : Yes
Forced : No
Color range : Limited
Color primaries : BT.709
Transfer characteristics : BT.709
Matrix coefficients : BT.709

Audio
ID : 2
Format : AC-3
Format/Info : Audio Coding 3
Format settings, Endianness : Big
Codec ID : A_AC3
Duration : 2 h 15 min
Bit rate mode : Constant
Bit rate : 224 kb/s
Channel(s) : 6 channels
Channel positions : Front: L C R, Side: L R, LFE
Sampling rate : 48.0 kHz
Frame rate : 31.250 FPS (1536 SPF)
Bit depth : 16 bits
Compression mode : Lossy
Stream size : 217 MiB (14%)
Language : Malayalam
Service kind : Complete Main
Default : Yes
Forced : No

Text
ID : 3
Format : UTF-8
Codec ID : S_TEXT/UTF8
Codec ID/Info : UTF-8 Plain Text
Duration : 2 h 11 min
Bit rate : 38 b/s
Count of elements : 1320
Stream size : 36.8 KiB (0%)
Language : English
Default : Yes
Forced : No

[b]Screen Shoots[/b

Files:

  • Mayaanadhi (2018) 720p Malayalam BDRip x264 AC3 ESub by Full4movies.mkv (1.5 GB)

There are currently no comments. Feel free to leave one :)

Code:

  • udp://tracker.coppersurfer.tk:6969/announce
  • udp://tracker.opentrackr.org:1337/announce
  • udp://9.rarbg.me:2710/announce
  • udp://tracker.torrent.eu.org:451/announce
  • udp://open.stealth.si:80/announce
  • udp://public.popcorn-tracker.org:6969/announce
  • udp://p4p.arenabg.ch:1337/announce
  • udp://tracker.zer0day.to:1337/announce
  • udp://tracker.pirateparty.gr:6969/announce
  • udp://tracker.leechers-paradise.org:6969/announce
  • udp://tracker.tiny-vps.com:6969/announce
  • udp://bt.firebit.co.uk:6969/announce
  • udp://inferno.demonoid.pw:3397/announce
  • udp://shadowshq.yi.org:6969/announce
  • udp://9.rarbg.to:2780/announce
SitemapThe.Big.Bang.Theory.S11E02.Das.Romulaner-Getraenk.German.Dubbed.DL.AmazonHD.x264-TVS | Chosen and Job | Ian Somerhalder Bigg.Boss.Season.12.(Day.30).720p.WEB-DL.x264.AAC.-.Hon3yHD | Beyblade Burst God | Capítulo Anterior