Mayaanadhi (2018) Malayalam BDRip x264 Mp3 ESubs by Full4movies

  • Category Movies
  • Type h.264/x264
  • Language Malayalam
  • Total size 724.3 MB
  • Uploaded By shmasti
  • Downloads 18
  • Last checked 11 minutes ago
  • Date uploaded 15 hours ago
  • Seeders 3
  • Leechers 9

Infohash : 24C16B4BB6DEF84599EAC1D83F94651B2DD47AD4



General
Complete name : Mayaanadhi (2018) Malayalam BDRip x264 Mp3 ESubs by Full4movies.mkv
Format : Matroska
Format version : Version 4 / Version 2
File size : 724 MiB
Duration : 2 h 15 min
Overall bit rate : 748 kb/s
Movie name : www.Full4movies.co
Encoded date : UTC 2018-10-04 16:24:43
Writing application : mkvmerge v8.1.0 ('Psychedelic Postcard') 32bit
Writing library : libebml v1.3.1 + libmatroska v1.4.2

Video
ID : 1
Format : AVC
Format/Info : Advanced Video Codec
Format profile : [email protected]
Format settings, CABAC : Yes
Format settings, RefFrames : 4 frames
Codec ID : V_MPEG4/ISO/AVC
Duration : 2 h 15 min
Bit rate : 667 kb/s
Width : 720 pixels
Height : 306 pixels
Display aspect ratio : 2.35:1
Frame rate mode : Constant
Frame rate : 24.000 FPS
Color space : YUV
Chroma subsampling : 4:2:0
Bit depth : 8 bits
Scan type : Progressive
Bits/(Pixel*Frame) : 0.126
Stream size : 645 MiB (89%)
Writing library : x264 core 155 r2901 7d0ff22
Default : Yes
Forced : No
Color range : Limited
Color primaries : BT.709
Transfer characteristics : BT.709
Matrix coefficients : BT.709

Audio
ID : 2
Format : MPEG Audio
Format version : Version 1
Format profile : Layer 3
Mode : Joint stereo
Mode extension : MS Stereo
Codec ID : A_MPEG/L3
Codec ID/Hint : MP3
Duration : 2 h 15 min
Bit rate mode : Constant
Bit rate : 80.0 kb/s
Channel(s) : 2 channels
Sampling rate : 48.0 kHz
Frame rate : 41.667 FPS (1152 SPF)
Compression mode : Lossy
Stream size : 77.5 MiB (11%)
Title : www.Full4movies.co
Writing library : LAME3.100
Language : Malayalam
Default : Yes
Forced : No

Text
ID : 3
Format : UTF-8
Codec ID : S_TEXT/UTF8
Codec ID/Info : UTF-8 Plain Text
Duration : 2 h 11 min
Bit rate : 38 b/s
Count of elements : 1320
Stream size : 36.8 KiB (0%)
Language : English
Default : Yes
Forced : No

[b]Screen Shoots[/b

Files:

  • Mayaanadhi (2018) Malayalam BDRip x264 Mp3 ESubs by Full4movies.mkv (724.3 MB)

There are currently no comments. Feel free to leave one :)

Code:

  • udp://tracker.coppersurfer.tk:6969/announce
  • udp://tracker.opentrackr.org:1337/announce
  • udp://9.rarbg.me:2710/announce
  • udp://tracker.torrent.eu.org:451/announce
  • udp://open.stealth.si:80/announce
  • udp://public.popcorn-tracker.org:6969/announce
  • udp://p4p.arenabg.ch:1337/announce
  • udp://tracker.zer0day.to:1337/announce
  • udp://tracker.pirateparty.gr:6969/announce
  • udp://tracker.leechers-paradise.org:6969/announce
  • udp://tracker.tiny-vps.com:6969/announce
  • udp://bt.firebit.co.uk:6969/announce
  • udp://inferno.demonoid.pw:3397/announce
  • udp://shadowshq.yi.org:6969/announce
  • udp://9.rarbg.to:2780/announce
SitemapWatch Hollywood Medium with Tyler Henry | Night Visions | 1 - 11 Episódio 11 Nazo no Kanojo X | Andy Garcia | Cartes mères