Venom (2018) 720p HD-TS Hindi Dubbed ~ Team ShareSpark

  • Category Movies
  • Type Dubs/Dual Audio
  • Language Hindi
  • Total size 2.6 GB
  • Uploaded By TheFighter
  • Downloads 4
  • Last checked 20 minutes ago
  • Date uploaded 20 minutes ago
  • Seeders 0
  • Leechers 0

Venom

HorrorScience FictionActionThriller

When Eddie Brock acquires the powers of a symbiote, he will have to release his alter-ego “Venom” to save his life.

Infohash : 75920350E243AF9BA00C26D6483B26FC913B147C







Join My Facebook Group

Venom (2018) 720p HD-TS Hindi Dubbed ~ Team ShareSpark

Thanks To KatmovieHD For Hindi Audio

Buy RDP Online



General
Format                                   : Matroska
Format version                           : Version 4 / Version 2
File size                                : 2.55 GiB
Duration                                 : 1 h 31 min
Overall bit rate mode                    : Variable
Overall bit rate                         : 3 963 kb/s
Movie name                               : Venom (2018) 720p HD-TS Hindi Dubbed ~ Team ShareSpark

Video
ID                                       : 1
Format                                   : AVC
Format/Info                              : Advanced Video Codec
Duration                                 : 1 h 31 min
Bit rate mode                            : Variable
Bit rate                                 : 3 835 kb/s
Maximum bit rate                         : 4 000 kb/s
Width                                    : 1 280 pixels
Height                                   : 544 pixels
Display aspect ratio                     : 2.35:1
Frame rate mode                          : Constant
Frame rate                               : 23.976 (24000/1001) FPS
Standard                                 : Component
Color space                              : YUV
Chroma subsampling                       : 4:2:0
Bit depth                                : 8 bits
Scan type                                : Progressive
Bits/(Pixel*Frame)                       : 0.230
Stream size                              : 2.46 GiB (97%)
Title                                    : ~Ranvijay
Language                                 : English
Default                                  : Yes
Forced                                   : No

Audio
ID                                       : 2
Format                                   : AAC
Format/Info                              : Advanced Audio Codec
Format profile                           : LC
Codec ID                                 : A_AAC-2
Duration                                 : 1 h 31 min
Bit rate                                 : 128 kb/s
Channel(s)                               : 2 channels
Channel positions                        : Front: L R
Sampling rate                            : 48.0 kHz
Frame rate                               : 46.875 FPS (1024 SPF)
Compression mode                         : Lossy
Stream size                              : 84.1 MiB (3%)
Title                                    : ~Ranvijay
Language                                 : Hindi
Default                                  : Yes
Forced                                   : Yes












Don't walk as you are king, walk as you don't care who the king is....!!





Files:

Venom (2018) 720p HD-TS Hindi Dubbed ~ Team ShareSpark
  • Venom (2018) 720p HD-TS Hindi Dubbed ~ Team ShareSpark.mkv (2.5 GB)
  • SpecialRDP - Premium & Affordable Web Hosting Solution.url (0.0 KB)
  • Sample - Venom (2018) 720p HD-TS Hindi Dubbed ~ Team ShareSpark.mkv (26.8 MB)

There are currently no comments. Feel free to leave one :)

Code:

  • udp://tracker.leechers-paradise.org:6969/announce
  • udp://9.rarbg.com:2720/announce
  • udp://9.rarbg.me:2730/announce
  • udp://eddie4.nl:6969/announce
  • udp://tracker.blackunicorn.xyz:6969/announce
  • udp://tracker.opentrackr.org:1337/announce
  • http://glotorrents.pw:80/announce
  • udp://coppersurfer.tk:6969/announce
  • udp://p4p.arenabg.ch:1337/announce
  • udp://p4p.arenabg.com:1337/announce
  • http://tracker.aletorrenty.pl:2710/announce
  • udp://zer0day.ch:1337/announce
  • udp://tracker.sktorrent.net:6969/announce
  • udp://thetracker.org:80/announce
  • udp://tracker.coppersurfer.tk:6969/announce
  • udp://explodie.org:6969/announce
SitemapA Description of Computers - 1084 Words | Suzu Hirose | Télécharger ! Business Strategy Analysis - - 633 Words | Communication Barriers - 400 Words | Shaq Fu: A Legend Reborn (2018) PC | RePack от qoob 44 minutes